古哥論壇

 找回密碼
 注冊(分享大片)
查看: 300|回復: 3
打印 上一主題 下一主題

[五尺天涯]Five.Feet.Apart.2019.1080p.BluRay.REMUX.AVC.DTS-HD.MA.5.1-FGT 31.7GB

[復制鏈接]
跳轉到指定樓層
1#
發表于 2019-6-15 23:06:21 | 只看該作者 回帖獎勵 |倒序瀏覽 |閱讀模式
4K天堂

◎譯  名 五尺天涯/我的五步男朋友(港)/愛上觸不到的你(臺)
◎片  名 Five Feet Apart
◎年  代 2019
◎產  地 美國
◎類  別 劇情/愛情
◎語  言 英語
◎上映日期 2019-03-15(美國)
◎IMDb評分  7.1/10 from 9171 users
◎藍光高清   http://www.4ktt.com
◎豆瓣評分 7.5/10 from 1614 users
◎豆瓣鏈接 https://movie.douban.com/subject/30135110/
◎片  長 116分鐘
◎導  演 賈斯汀·貝爾杜尼 Justin Baldoni
◎編  劇 米琪·多特里 Mikki Daughtry / 托拜厄斯·伊康尼斯 Tobias Iaconis
◎主  演 海莉·露·理查森 Haley Lu Richardson
      科爾·斯普羅斯 Cole Sprouse
      克萊爾·弗蘭妮 Claire Forlani
      莫伊塞斯·阿里亞斯 Moises Arias
      帕敏德·納格拉 Parminder Nagra
      艾米麗·芭爾多尼 Emily Baldoni
      加里·維克斯 Gary Weeks
      金博利·赫伯特·格雷戈里 Kimberly Hebert Gregory
      吉姆·格里森 Jim Gleason

◎簡  介  
  17歲女孩Stella和男孩Will身患囊腫性纖維化疾病,他們在醫院治療的過程中相識相愛,兩人必須抓緊每分每秒活著的時間。他們的愛情能夠戰勝疾病和死亡嗎?

  1. Video
  2. ID : 1
  3. Format : AVC
  4. Format/Info : Advanced Video Codec
  5. Format profile : [email protected]
  6. Format settings : CABAC / 4 Ref Frames
  7. Format settings, CABAC : Yes
  8. Format settings, ReFrames : 4 frames
  9. Codec ID : V_MPEG4/ISO/AVC
  10. Duration : 1 h 56 min
  11. Bit rate mode : Variable
  12. Bit rate : 34.9 Mb/s
  13. Maximum bit rate : 37.0 Mb/s
  14. Width : 1 920 pixels
  15. Height : 1 080 pixels
  16. Display aspect ratio : 16:9
  17. Frame rate mode : Constant
  18. Frame rate : 23.976 (24000/1001) FPS
  19. Color space : YUV
  20. Chroma subsampling : 4:2:0
  21. Bit depth : 8 bits
  22. Scan type : Progressive
  23. Bits/(Pixel*Frame) : 0.703
  24. Stream size : 28.4 GiB (89%)
  25. Title : Five.Feet.Apart.2019.1080p.BluRay.REMUX.AVC.DTS-HD.MA.5.1-FGT
  26. Language : English
  27. Default : No
  28. Forced : No

  29. Audio #1
  30. ID : 2
  31. Format : DTS XLL
  32. Format/Info : Digital Theater Systems
  33. Commercial name : DTS-HD Master Audio
  34. Codec ID : A_DTS
  35. Duration : 1 h 56 min
  36. Bit rate mode : Variable
  37. Bit rate : 3 279 kb/s
  38. Channel(s) : 6 channels
  39. Channel layout : C L R Ls Rs LFE
  40. Sampling rate : 48.0 kHz
  41. Frame rate : 93.750 FPS (512 SPF)
  42. Bit depth : 24 bits
  43. Compression mode : Lossless
  44. Stream size : 2.66 GiB (8%)
  45. Title : Five.Feet.Apart.2019.1080p.BluRay.REMUX.AVC.DTS-HD.MA.5.1-FGT
  46. Language : English
  47. Default : Yes
  48. Forced : No

  49. Audio #2
  50. ID : 3
  51. Format : AC-3
  52. Format/Info : Audio Coding 3
  53. Commercial name : Dolby Digital
  54. Codec ID : A_AC3
  55. Duration : 1 h 56 min
  56. Bit rate mode : Constant
  57. Bit rate : 448 kb/s
  58. Channel(s) : 6 channels
  59. Channel layout : L R C LFE Ls Rs
  60. Sampling rate : 48.0 kHz
  61. Frame rate : 31.250 FPS (1536 SPF)
  62. Bit depth : 16 bits
  63. Compression mode : Lossy
  64. Stream size : 373 MiB (1%)
  65. Title : Five.Feet.Apart.2019.1080p.BluRay.REMUX.AVC.DTS-HD.MA.5.1-FGT
  66. Language : Spanish
  67. Service kind : Complete Main
  68. Default : No
  69. Forced : No

  70. Audio #3
  71. ID : 4
  72. Format : AC-3
  73. Format/Info : Audio Coding 3
  74. Commercial name : Dolby Digital
  75. Codec ID : A_AC3
  76. Duration : 1 h 56 min
  77. Bit rate mode : Constant
  78. Bit rate : 192 kb/s
  79. Channel(s) : 2 channels
  80. Channel layout : L R
  81. Sampling rate : 48.0 kHz
  82. Frame rate : 31.250 FPS (1536 SPF)
  83. Bit depth : 16 bits
  84. Compression mode : Lossy
  85. Stream size : 160 MiB (0%)
  86. Title : Five.Feet.Apart.2019.1080p.BluRay.REMUX.AVC.DTS-HD.MA.5.1-FGT
  87. Language : English
  88. Service kind : Complete Main
  89. Default : No
  90. Forced : No

  91. Audio #4
  92. ID : 5
  93. Format : AC-3
  94. Format/Info : Audio Coding 3
  95. Commercial name : Dolby Digital
  96. Codec ID : A_AC3
  97. Duration : 1 h 56 min
  98. Bit rate mode : Constant
  99. Bit rate : 192 kb/s
  100. Channel(s) : 2 channels
  101. Channel layout : L R
  102. Sampling rate : 48.0 kHz
  103. Frame rate : 31.250 FPS (1536 SPF)
  104. Bit depth : 16 bits
  105. Compression mode : Lossy
  106. Stream size : 160 MiB (0%)
  107. Title : Five.Feet.Apart.2019.1080p.BluRay.REMUX.AVC.DTS-HD.MA.5.1-FGT
  108. Language : English
  109. Service kind : Complete Main
  110. Default : No
  111. Forced : No

  112. Text #1
  113. ID : 6
  114. Format : UTF-8
  115. Codec ID : S_TEXT/UTF8
  116. Codec ID/Info : UTF-8 Plain Text
  117. Duration : 1 h 49 min
  118. Bit rate : 43 b/s
  119. Count of elements : 1207
  120. Stream size : 35.3 KiB (0%)
  121. Title : English-SRT
  122. Language : English
  123. Default : Yes
  124. Forced : No

  125. Text #2
  126. ID : 7
  127. Format : PGS
  128. Muxing mode : zlib
  129. Codec ID : S_HDMV/PGS
  130. Codec ID/Info : Picture based subtitle format used on BDs/HD-DVDs
  131. Duration : 1 h 53 min
  132. Bit rate : 34.0 kb/s
  133. Count of elements : 2884
  134. Stream size : 27.6 MiB (0%)
  135. Title : English-PGS
  136. Language : English
  137. Default : No
  138. Forced : No

  139. Text #3
  140. ID : 8
  141. Format : PGS
  142. Muxing mode : zlib
  143. Codec ID : S_HDMV/PGS
  144. Codec ID/Info : Picture based subtitle format used on BDs/HD-DVDs
  145. Duration : 1 h 51 min
  146. Bit rate : 28.8 kb/s
  147. Count of elements : 2196
  148. Stream size : 23.0 MiB (0%)
  149. Title : Spanish-PGS
  150. Language : Spanish
  151. Default : No
  152. Forced : No

  153. Text #4
  154. ID : 9
  155. Format : PGS
  156. Muxing mode : zlib
  157. Codec ID : S_HDMV/PGS
  158. Codec ID/Info : Picture based subtitle format used on BDs/HD-DVDs
  159. Duration : 1 h 47 min
  160. Bit rate : 1 570 b/s
  161. Count of elements : 94
  162. Stream size : 1.21 MiB (0%)
  163. Title : Spanish-PGS
  164. Language : Spanish
  165. Default : No
  166. Forced : No
復制代碼









Five.Feet.Apart.2019.1080p.BluRay.REMUX.AVC.DTS-HD.MA.5.1-FGT.torrent (79.88 KB, 下載次數: 16)


提示:如迅雷下載提示"任務出錯"、"因版權無法下載",請更換【迅雷5】,提取碼: ai7u
古哥影視論壇www.fgagio.tw 高清電影,藍光電影,最新電影,電影天堂,影視帝國,人人影視
點我免費領影視幣
2#
發表于 2019-6-16 19:08:02 | 只看該作者
感謝樓主分享!永遠支持古哥影視
古哥影視論壇www.fgagio.tw 高清電影,藍光電影,最新電影,電影天堂,影視帝國,人人影視
點我免費領影視幣
回復 支持 反對

使用道具 舉報

3#
發表于 2019-6-16 19:38:13 | 只看該作者
藍光電影好大容量,謝謝分享
古哥影視論壇www.fgagio.tw 高清電影,藍光電影,最新電影,電影天堂,影視帝國,人人影視
點我免費領影視幣
回復 支持 反對

使用道具 舉報

4#
發表于 2019-6-28 13:56:22 | 只看該作者
大片要支持,感謝樓支分享
古哥影視論壇www.fgagio.tw 高清電影,藍光電影,最新電影,電影天堂,影視帝國,人人影視
點我免費領影視幣
回復 支持 反對

使用道具 舉報

您需要登錄后才可以回帖 登錄 | 注冊(分享大片)

本版積分規則

影視帝國免責聲明
本站提供網上學習交流和自由討論使用,所有資源均來自互聯網公開渠道,發布和個人言論并不代表本站立場,本站不負任何責任.
如發現有侵權行為,請與我們聯系.我們將立刻從網站上刪除,并向所有持版權者致最深歉意.
影視帝國論壇已經安全運行

QQ|小黑屋|手機版|Archiver|古哥論壇 ( 蘇ICP備12074540號 )

GMT+8, 2019-7-6 22:28 , Processed in 0.220861 second(s), 20 queries , Gzip On.

Powered by Discuz! X3.2

© 2001-2013 Comsenz Inc.

快速回復 返回頂部 返回列表
腾讯三分彩官网