古哥論壇

 找回密碼
 注冊(分享大片)
查看: 498|回復: 11
打印 上一主題 下一主題

[我們]Us.2019.1080p.BluRay.REMUX.AVC.DTS-HD.MA.TrueHD.7.1.Atmos-FGT 32GB

[復制鏈接]
跳轉到指定樓層
1#
發表于 2019-6-15 23:10:50 | 只看該作者 回帖獎勵 |倒序瀏覽 |閱讀模式
4K天堂


◎譯  名 我們/我們·異(港)
◎片  名 Us
◎年  代 2019
◎產  地 美國
◎類  別 驚悚/恐怖
◎語  言 英語
◎上映日期 2019-03-08(西南偏南電影節) / 2019-03-22(美國)
◎IMDb評分  7.1/10 from 101808 users
◎藍光高清   http://www.4ktt.com
◎豆瓣評分 6.7/10 from 31871 users
◎豆瓣鏈接 https://movie.douban.com/subject/27053945/
◎片  長 116分鐘
◎導  演 喬丹·皮爾 Jordan Peele
◎編  劇 喬丹·皮爾 Jordan Peele
◎主  演 露皮塔·尼永奧 Lupita Nyong'o
      溫斯頓·杜克 Winston Duke
      伊麗莎白·莫斯 Elisabeth Moss
      蒂姆·海德克 Tim Heidecker
      莎哈迪·賴特·約瑟夫 Shahadi Wright Joseph
      伊萬·艾利克斯 Evan Alex
      葉海亞·阿卜杜勒-邁丁 Yahya Abdul-Mateen II
      安娜·迪奧普 Anna Diop
      卡莉·謝爾頓 Cali Sheldon
      諾爾·謝爾頓 Noelle Sheldon
      麥迪遜·柯里 Madison Curry
      納皮埃拉·格羅夫斯 Napiera Groves
      杜克·尼科爾森 Duke Nicholson
      納丹·哈靈頓 Nathan Harrington
      卡拉·海沃德 Kara Hayward

◎簡  介  
  一對名為阿德萊德和蓋博的夫妻帶著孩子到海濱度假,這里曾經是阿萊德萊童年的娛樂場所。在海濱與泰勒一家玩了一天之后,阿德萊德愈發地無法從往昔的傷痛中走出,他越來越覺得自己的家庭將要發生災難。到了晚上,他們一家甚至看到有四個人手拉手在行車道上站立,似乎有更多詭異的事情等待著他們。

  1. Video
  2. ID : 1
  3. Format : AVC
  4. Format/Info : Advanced Video Codec
  5. Format profile : [email protected]
  6. Format settings : CABAC / 4 Ref Frames
  7. Format settings, CABAC : Yes
  8. Format settings, ReFrames : 4 frames
  9. Codec ID : V_MPEG4/ISO/AVC
  10. Duration : 1 h 56 min
  11. Bit rate mode : Variable
  12. Bit rate : 29.3 Mb/s
  13. Maximum bit rate : 32.7 Mb/s
  14. Width : 1 920 pixels
  15. Height : 1 080 pixels
  16. Display aspect ratio : 16:9
  17. Frame rate mode : Constant
  18. Frame rate : 23.976 (24000/1001) FPS
  19. Color space : YUV
  20. Chroma subsampling : 4:2:0
  21. Bit depth : 8 bits
  22. Scan type : Progressive
  23. Bits/(Pixel*Frame) : 0.589
  24. Stream size : 23.8 GiB (74%)
  25. Title : Us.2019.1080p.BluRay.REMUX.AVC.DTS-HD.MA.TrueHD.7.1.Atmos-FGT
  26. Language : English
  27. Default : No
  28. Forced : No

  29. Audio #1
  30. ID : 2
  31. Format : MLP FBA 16-ch
  32. Format/Info : Meridian Lossless Packing FBA with 16-channel presentation
  33. Commercial name : Dolby TrueHD with Dolby Atmos
  34. Codec ID : A_TRUEHD
  35. Duration : 1 h 56 min
  36. Bit rate mode : Variable
  37. Bit rate : 3 177 kb/s
  38. Maximum bit rate : 4 872 kb/s
  39. Channel(s) : 8 channels
  40. Channel layout : L R C LFE Ls Rs Lb Rb
  41. Sampling rate : 48.0 kHz
  42. Frame rate : 1 200.000 FPS (40 SPF)
  43. Compression mode : Lossless
  44. Stream size : 2.58 GiB (8%)
  45. Title : Us.2019.1080p.BluRay.REMUX.AVC.DTS-HD.MA.TrueHD.7.1.Atmos-FGT
  46. Language : English
  47. Default : Yes
  48. Forced : No
  49. Number of dynamic objects : 11
  50. Bed channel count : 1 channel
  51. Bed channel configuration : LFE

  52. Audio #2
  53. ID : 3
  54. Format : DTS XLL
  55. Format/Info : Digital Theater Systems
  56. Commercial name : DTS-HD Master Audio
  57. Codec ID : A_DTS
  58. Duration : 1 h 56 min
  59. Bit rate mode : Variable
  60. Bit rate : 3 912 kb/s
  61. Channel(s) : 8 channels
  62. Channel layout : C L R LFE Lb Rb Lss Rss
  63. Sampling rate : 48.0 kHz
  64. Frame rate : 93.750 FPS (512 SPF)
  65. Bit depth : 24 bits
  66. Compression mode : Lossless
  67. Stream size : 3.18 GiB (10%)
  68. Title : Us.2019.1080p.BluRay.REMUX.AVC.DTS-HD.MA.TrueHD.7.1.Atmos-FGT
  69. Language : English
  70. Default : No
  71. Forced : No

  72. Audio #3
  73. ID : 4
  74. Format : AC-3
  75. Format/Info : Audio Coding 3
  76. Commercial name : Dolby Digital
  77. Codec ID : A_AC3
  78. Duration : 1 h 56 min
  79. Bit rate mode : Constant
  80. Bit rate : 448 kb/s
  81. Channel(s) : 6 channels
  82. Channel layout : L R C LFE Ls Rs
  83. Sampling rate : 48.0 kHz
  84. Frame rate : 31.250 FPS (1536 SPF)
  85. Bit depth : 16 bits
  86. Compression mode : Lossy
  87. Stream size : 373 MiB (1%)
  88. Title : Us.2019.1080p.BluRay.REMUX.AVC.DTS-HD.MA.TrueHD.7.1.Atmos-FGT
  89. Language : English
  90. Service kind : Complete Main
  91. Default : No
  92. Forced : No

  93. Audio #4
  94. ID : 5
  95. Format : E-AC-3
  96. Format/Info : Enhanced AC-3
  97. Commercial name : Dolby Digital Plus
  98. Format profile : Blu-ray Disc
  99. Codec ID : A_EAC3
  100. Duration : 1 h 56 min
  101. Bit rate mode : Constant
  102. Bit rate : 768 kb/s
  103. Channel(s) : 8 channels
  104. Channel layout : L R C LFE Ls Rs Lb Rb
  105. Sampling rate : 48.0 kHz
  106. Frame rate : 31.250 FPS (1536 SPF)
  107. Compression mode : Lossy
  108. Stream size : 640 MiB (2%)
  109. Title : Us.2019.1080p.BluRay.REMUX.AVC.DTS-HD.MA.TrueHD.7.1.Atmos-FGT
  110. Language : Spanish
  111. Service kind : Complete Main
  112. Default : No
  113. Forced : No

  114. Audio #5
  115. ID : 6
  116. Format : AC-3
  117. Format/Info : Audio Coding 3
  118. Commercial name : Dolby Digital
  119. Codec ID : A_AC3
  120. Duration : 1 h 56 min
  121. Bit rate mode : Constant
  122. Bit rate : 448 kb/s
  123. Channel(s) : 6 channels
  124. Channel layout : L R C LFE Ls Rs
  125. Sampling rate : 48.0 kHz
  126. Frame rate : 31.250 FPS (1536 SPF)
  127. Bit depth : 16 bits
  128. Compression mode : Lossy
  129. Stream size : 373 MiB (1%)
  130. Title : Us.2019.1080p.BluRay.REMUX.AVC.DTS-HD.MA.TrueHD.7.1.Atmos-FGT
  131. Language : Spanish
  132. Service kind : Complete Main
  133. Default : No
  134. Forced : No

  135. Audio #6
  136. ID : 7
  137. Format : E-AC-3
  138. Format/Info : Enhanced AC-3
  139. Commercial name : Dolby Digital Plus
  140. Format profile : Blu-ray Disc
  141. Codec ID : A_EAC3
  142. Duration : 1 h 56 min
  143. Bit rate mode : Constant
  144. Bit rate : 768 kb/s
  145. Channel(s) : 8 channels
  146. Channel layout : L R C LFE Ls Rs Lb Rb
  147. Sampling rate : 48.0 kHz
  148. Frame rate : 31.250 FPS (1536 SPF)
  149. Compression mode : Lossy
  150. Stream size : 640 MiB (2%)
  151. Title : Us.2019.1080p.BluRay.REMUX.AVC.DTS-HD.MA.TrueHD.7.1.Atmos-FGT
  152. Language : French
  153. Service kind : Complete Main
  154. Default : No
  155. Forced : No

  156. Audio #7
  157. ID : 8
  158. Format : AC-3
  159. Format/Info : Audio Coding 3
  160. Commercial name : Dolby Digital
  161. Codec ID : A_AC3
  162. Duration : 1 h 56 min
  163. Bit rate mode : Constant
  164. Bit rate : 448 kb/s
  165. Channel(s) : 6 channels
  166. Channel layout : L R C LFE Ls Rs
  167. Sampling rate : 48.0 kHz
  168. Frame rate : 31.250 FPS (1536 SPF)
  169. Bit depth : 16 bits
  170. Compression mode : Lossy
  171. Stream size : 373 MiB (1%)
  172. Title : Us.2019.1080p.BluRay.REMUX.AVC.DTS-HD.MA.TrueHD.7.1.Atmos-FGT
  173. Language : French
  174. Service kind : Complete Main
  175. Default : No
  176. Forced : No

  177. Audio #8
  178. ID : 9
  179. Format : AC-3
  180. Format/Info : Audio Coding 3
  181. Commercial name : Dolby Digital
  182. Codec ID : A_AC3
  183. Duration : 1 h 56 min
  184. Bit rate mode : Constant
  185. Bit rate : 192 kb/s
  186. Channel(s) : 2 channels
  187. Channel layout : L R
  188. Sampling rate : 48.0 kHz
  189. Frame rate : 31.250 FPS (1536 SPF)
  190. Bit depth : 16 bits
  191. Compression mode : Lossy
  192. Stream size : 160 MiB (0%)
  193. Title : Us.2019.1080p.BluRay.REMUX.AVC.DTS-HD.MA.TrueHD.7.1.Atmos-FGT
  194. Language : English
  195. Service kind : Complete Main
  196. Default : No
  197. Forced : No

  198. Text #1
  199. ID : 10
  200. Format : UTF-8
  201. Codec ID : S_TEXT/UTF8
  202. Codec ID/Info : UTF-8 Plain Text
  203. Duration : 1 h 52 min
  204. Bit rate : 41 b/s
  205. Count of elements : 1066
  206. Stream size : 34.3 KiB (0%)
  207. Title : English-SRT
  208. Language : English
  209. Default : Yes
  210. Forced : No

  211. Text #2
  212. ID : 11
  213. Format : PGS
  214. Muxing mode : zlib
  215. Codec ID : S_HDMV/PGS
  216. Codec ID/Info : Picture based subtitle format used on BDs/HD-DVDs
  217. Duration : 1 h 53 min
  218. Bit rate : 35.4 kb/s
  219. Count of elements : 2751
  220. Stream size : 28.8 MiB (0%)
  221. Title : English-PGS
  222. Language : English
  223. Default : No
  224. Forced : No

  225. Text #3
  226. ID : 12
  227. Format : PGS
  228. Muxing mode : zlib
  229. Codec ID : S_HDMV/PGS
  230. Codec ID/Info : Picture based subtitle format used on BDs/HD-DVDs
  231. Duration : 1 h 55 min
  232. Bit rate : 25.2 kb/s
  233. Count of elements : 2100
  234. Stream size : 20.8 MiB (0%)
  235. Title : Spanish-PGS
  236. Language : Spanish
  237. Default : No
  238. Forced : No

  239. Text #4
  240. ID : 13
  241. Format : PGS
  242. Muxing mode : zlib
  243. Codec ID : S_HDMV/PGS
  244. Codec ID/Info : Picture based subtitle format used on BDs/HD-DVDs
  245. Duration : 1 h 55 min
  246. Bit rate : 22.1 kb/s
  247. Count of elements : 1808
  248. Stream size : 18.3 MiB (0%)
  249. Title : French-PGS
  250. Language : French
  251. Default : No
  252. Forced : No

  253. Text #5
  254. ID : 14
  255. Format : PGS
  256. Muxing mode : zlib
  257. Codec ID : S_HDMV/PGS
  258. Codec ID/Info : Picture based subtitle format used on BDs/HD-DVDs
  259. Duration : 1 h 51 min
  260. Bit rate : 278 b/s
  261. Count of elements : 24
  262. Stream size : 228 KiB (0%)
  263. Title : Spanish-FORCED-PGS
  264. Language : Spanish
  265. Default : No
  266. Forced : No

  267. Text #6
  268. ID : 15
  269. Format : PGS
  270. Muxing mode : zlib
  271. Codec ID : S_HDMV/PGS
  272. Codec ID/Info : Picture based subtitle format used on BDs/HD-DVDs
  273. Duration : 1 h 55 min
  274. Bit rate : 409 b/s
  275. Count of elements : 28
  276. Stream size : 346 KiB (0%)
  277. Title : French-FORCED-PGS
  278. Language : French
  279. Default : No
  280. Forced : No
復制代碼









Us.2019.1080p.BluRay.REMUX.AVC.DTS-HD.MA.TrueHD.7.1.Atmos-FGT.torrent (80.99 KB, 下載次數: 58)

提示:如迅雷下載提示"任務出錯"、"因版權無法下載",請更換【迅雷5】,提取碼: ai7u
古哥影視論壇www.fgagio.tw 高清電影,藍光電影,最新電影,電影天堂,影視帝國,人人影視
點我免費領影視幣
2#
發表于 2019-6-16 10:09:09 | 只看該作者
謝謝樓主分享
古哥影視論壇www.fgagio.tw 高清電影,藍光電影,最新電影,電影天堂,影視帝國,人人影視
點我免費領影視幣
回復 支持 反對

使用道具 舉報

3#
發表于 2019-6-16 11:06:16 | 只看該作者
謝謝樓主分享
古哥影視論壇www.fgagio.tw 高清電影,藍光電影,最新電影,電影天堂,影視帝國,人人影視
點我免費領影視幣
回復 支持 反對

使用道具 舉報

4#
發表于 2019-6-16 18:24:29 | 只看該作者
找了好久 謝謝分享
古哥影視論壇www.fgagio.tw 高清電影,藍光電影,最新電影,電影天堂,影視帝國,人人影視
點我免費領影視幣
回復 支持 反對

使用道具 舉報

5#
發表于 2019-6-16 19:06:50 | 只看該作者
感謝樓主分享!永遠支持古哥影視
古哥影視論壇www.fgagio.tw 高清電影,藍光電影,最新電影,電影天堂,影視帝國,人人影視
點我免費領影視幣
回復 支持 反對

使用道具 舉報

6#
發表于 2019-6-16 21:21:10 | 只看該作者
謝謝樓主分享
古哥影視論壇www.fgagio.tw 高清電影,藍光電影,最新電影,電影天堂,影視帝國,人人影視
點我免費領影視幣
回復 支持 反對

使用道具 舉報

7#
發表于 2019-6-16 21:35:47 | 只看該作者
感謝發布感謝發布
古哥影視論壇www.fgagio.tw 高清電影,藍光電影,最新電影,電影天堂,影視帝國,人人影視
點我免費領影視幣
回復 支持 反對

使用道具 舉報

8#
發表于 2019-6-16 22:26:16 | 只看該作者
謝謝樓主分享
古哥影視論壇www.fgagio.tw 高清電影,藍光電影,最新電影,電影天堂,影視帝國,人人影視
點我免費領影視幣
回復 支持 反對

使用道具 舉報

9#
發表于 2019-6-17 08:19:11 | 只看該作者
這海報好恐怖的樣子,謝謝分享
古哥影視論壇www.fgagio.tw 高清電影,藍光電影,最新電影,電影天堂,影視帝國,人人影視
點我免費領影視幣
回復 支持 反對

使用道具 舉報

10#
發表于 2019-6-17 11:20:51 | 只看該作者
黑人題材這幾年越來越多了,樓主辛苦
古哥影視論壇www.fgagio.tw 高清電影,藍光電影,最新電影,電影天堂,影視帝國,人人影視
點我免費領影視幣
回復 支持 反對

使用道具 舉報

11#
發表于 2019-6-17 17:08:48 | 只看該作者
黑人題材這幾年越來越多了,樓主辛苦
古哥影視論壇www.fgagio.tw 高清電影,藍光電影,最新電影,電影天堂,影視帝國,人人影視
點我免費領影視幣
回復 支持 反對

使用道具 舉報

12#
發表于 2019-6-29 13:42:49 | 只看該作者

謝謝樓主分享
古哥影視論壇www.fgagio.tw 高清電影,藍光電影,最新電影,電影天堂,影視帝國,人人影視
點我免費領影視幣
回復 支持 反對

使用道具 舉報

您需要登錄后才可以回帖 登錄 | 注冊(分享大片)

本版積分規則

影視帝國免責聲明
本站提供網上學習交流和自由討論使用,所有資源均來自互聯網公開渠道,發布和個人言論并不代表本站立場,本站不負任何責任.
如發現有侵權行為,請與我們聯系.我們將立刻從網站上刪除,并向所有持版權者致最深歉意.
影視帝國論壇已經安全運行

QQ|小黑屋|手機版|Archiver|古哥論壇

GMT+8, 2019-7-20 00:49 , Processed in 0.208306 second(s), 20 queries , Gzip On.

Powered by Discuz! X3.2

© 2001-2013 Comsenz Inc.

快速回復 返回頂部 返回列表
腾讯三分彩官网