古哥論壇

 找回密碼
 注冊(分享大片)
查看: 708|回復: 66
打印 上一主題 下一主題

[1080P] [生死豪情/火線勇氣]Courage.Under.Fire.1996.1080p.BluRay.x264-CiNEFiLE 7.95GB

[復制鏈接]
跳轉到指定樓層
1#
發表于 2019-6-16 22:16:29 | 只看該作者 回帖獎勵 |倒序瀏覽 |閱讀模式
4K天堂

◎譯  名 生死豪情 / 火線勇氣
◎片  名 Courage Under Fire
◎年  代 1996
◎產  地 美國
◎類  別 動作 / 懸疑 / 戰爭
◎語  言 英語
◎上映日期 1996-07-12
◎IMDb評分 6.6/10 from 46900 users
◎IMDb鏈接 http://www.imdb.com/title/tt0115956
◎豆瓣評分 7.5/10 from 5192 users
◎藍光高清   http://www.4ktt.com
◎片  長 117 分鐘
◎導  演 Edward Zwick
◎編  劇 Patrick Sheane Duncan
◎主  演 丹澤爾·華盛頓 Denzel Washington
      梅格·瑞恩 Meg Ryan
      邁克爾·莫里亞蒂 Michael Moriarty
      馬特·達蒙 Matt Damon
      西恩·奧斯汀 Sean Astin
      斯科特·格林 Scott Glenn

◎簡  介
  海灣戰爭中,坦克部隊軍官沙林(丹澤爾?華盛頓 Denzel Washington 飾)一次判斷失誤下令擊毀了己軍的坦克,令到好友鮑德溫意外死亡了。雖然軍事法庭判他不需承擔責任,然而他還是日夜受著良心的煎熬,一直想找鮑德溫的父母說明此事,卻也一直沒有勇氣。
上司為了給沙林授勛,派他調查戰爭中一起機械師勇救士兵犧牲的事件。沙林調查中發現勇救士兵而英勇犧牲的竟然是卡倫(梅格?瑞安 Meg Ryan 飾)竟然是個女人!但現場的幾名士兵的供詞自相矛盾、漏洞百出。在沙林對其中一名士兵墨菲逼問后,墨菲竟然自殺了。隨著墨菲的自殺,事件的真相慢慢浮出水面……


Video
ID : 1
Format : AVC
Format/Info : Advanced Video Codec
Format profile : [email protected]
Format settings : CABAC / 5 Ref Frames
Format settings, CABAC : Yes
Format settings, ReFrames : 5 frames
Codec ID : V_MPEG4/ISO/AVC
Duration : 1 h 56 min
Bit rate : 9 125 kb/s
Width : 1 920 pixels
Height : 1 040 pixels
Display aspect ratio : 1.85:1
Frame rate mode : Constant
Frame rate : 23.976 FPS
Color space : YUV
Chroma subsampling : 4:2:0
Bit depth : 8 bits
Scan type : Progressive
Bits/(Pixel*Frame) : 0.191
Stream size : 7.27 GiB (91%)
Title : Courage.Under.Fire
Writing library : x264 core 65 r998M 6768543
Encoding settings : cabac=1 / ref=5 / deblock=1:0:0 / analyse=0x3:0x133 / me=umh / subme=7 / psy_rd=1.0:0.0 / mixed_ref=1 / me_range=12 / chroma_me=1 / trellis=1 / 8x8dct=1 / cqm=0 / deadzone=21,11 / chroma_qp_offset=-2 / threads=6 / nr=0 / decimate=1 / mbaff=0 / bframes=3 / b_pyramid=1 / b_adapt=1 / b_bias=0 / direct=3 / wpredb=1 / keyint=240 / keyint_min=24 / scenecut=40(pre) / rc=2pass / bitrate=9125 / ratetol=1.0 / qcomp=0.60 / qpmin=10 / qpmax=51 / qpstep=4 / cplxblur=20.0 / qblur=0.5 / ip_ratio=1.40 / pb_ratio=1.30 / aq=1:1.00
Language : English
Default : Yes
Forced : No

Audio
ID : 2
Format : AC-3
Format/Info : Audio Coding 3
Codec ID : A_AC3
Duration : 1 h 56 min
Bit rate mode : Constant
Bit rate : 640 kb/s
Channel(s) : 6 channels
Channel positions : Front: L C R, Side: L R, LFE
Sampling rate : 48.0 kHz
Frame rate : 31.250 FPS (1536 SPF)
Bit depth : 16 bits
Compression mode : Lossy
Stream size : 533 MiB (7%)
Title : English
Language : English
Service kind : Complete Main
Default : Yes
Forced : No

Text
ID : 3
Format : UTF-8
Codec ID : S_TEXT/UTF8
Codec ID/Info : UTF-8 Plain Text
Title : English
Language : English
Default : Yes
Forced : No










游客,如果您要查看本帖隱藏內容請回復,如果您想無廣告、免回復、下載附件免影視幣請開通VIP:VIP傳送門


提示:如迅雷下載提示"任務出錯"、"因版權無法下載",請更換【迅雷5】,提取碼: ai7u
古哥影視論壇www.fgagio.tw 高清電影,藍光電影,最新電影,電影天堂,影視帝國,人人影視
點我免費領影視幣
2#
發表于 2019-6-16 22:23:08 | 只看該作者
 海灣戰爭中,坦克部隊軍官沙林(丹澤爾?華盛頓 Denzel Washington 飾)一次判斷失誤下令擊毀了己軍的坦克,令到好友鮑德溫意外死亡了。雖然軍事法庭判他不需承擔責任,然而他還是日夜受著良心的煎熬,一直想找鮑德溫的父母說明此事,卻也一直沒有勇氣。
古哥影視論壇www.fgagio.tw 高清電影,藍光電影,最新電影,電影天堂,影視帝國,人人影視
點我免費領影視幣
回復 支持 反對

使用道具 舉報

3#
發表于 2019-6-16 23:04:06 | 只看該作者
感謝樓主分享
古哥影視論壇www.fgagio.tw 高清電影,藍光電影,最新電影,電影天堂,影視帝國,人人影視
點我免費領影視幣
回復 支持 反對

使用道具 舉報

4#
發表于 2019-6-16 23:06:43 | 只看該作者
看兩位主演就夠了
古哥影視論壇www.fgagio.tw 高清電影,藍光電影,最新電影,電影天堂,影視帝國,人人影視
點我免費領影視幣
回復 支持 反對

使用道具 舉報

5#
發表于 2019-6-16 23:49:28 | 只看該作者
隨著墨菲的自殺,事件的真相慢慢浮出水面……
古哥影視論壇www.fgagio.tw 高清電影,藍光電影,最新電影,電影天堂,影視帝國,人人影視
點我免費領影視幣
回復 支持 反對

使用道具 舉報

6#
發表于 2019-6-17 00:01:38 | 只看該作者
感謝樓主分享
古哥影視論壇www.fgagio.tw 高清電影,藍光電影,最新電影,電影天堂,影視帝國,人人影視
點我免費領影視幣
回復 支持 反對

使用道具 舉報

7#
發表于 2019-6-17 00:16:33 | 只看該作者
感謝樓主分享
古哥影視論壇www.fgagio.tw 高清電影,藍光電影,最新電影,電影天堂,影視帝國,人人影視
點我免費領影視幣
回復 支持 反對

使用道具 舉報

8#
發表于 2019-6-17 03:35:54 | 只看該作者
謝謝樓主分享經典老片
古哥影視論壇www.fgagio.tw 高清電影,藍光電影,最新電影,電影天堂,影視帝國,人人影視
點我免費領影視幣
回復 支持 反對

使用道具 舉報

9#
發表于 2019-6-17 05:49:08 | 只看該作者
看上去很不錯
古哥影視論壇www.fgagio.tw 高清電影,藍光電影,最新電影,電影天堂,影視帝國,人人影視
點我免費領影視幣
回復 支持 反對

使用道具 舉報

10#
發表于 2019-6-17 07:10:07 | 只看該作者
謝謝樓主分享辛苦了
古哥影視論壇www.fgagio.tw 高清電影,藍光電影,最新電影,電影天堂,影視帝國,人人影視
點我免費領影視幣
回復 支持 反對

使用道具 舉報

12#
發表于 2019-6-17 08:17:07 | 只看該作者
發大水口他那棵樹的哭聲康復科
古哥影視論壇www.fgagio.tw 高清電影,藍光電影,最新電影,電影天堂,影視帝國,人人影視
點我免費領影視幣
回復 支持 反對

使用道具 舉報

13#
發表于 2019-6-17 08:20:14 | 只看該作者
生死豪情生死豪情生死豪情生死豪情生死豪情生死豪情生死豪情生死豪情生死豪情生死豪情
古哥影視論壇www.fgagio.tw 高清電影,藍光電影,最新電影,電影天堂,影視帝國,人人影視
點我免費領影視幣
回復 支持 反對

使用道具 舉報

14#
發表于 2019-6-17 09:03:02 | 只看該作者
謝謝分享下載了啊
古哥影視論壇www.fgagio.tw 高清電影,藍光電影,最新電影,電影天堂,影視帝國,人人影視
點我免費領影視幣
回復 支持 反對

使用道具 舉報

15#
發表于 2019-6-17 09:18:16 | 只看該作者
丹澤爾的片子還是要看的
古哥影視論壇www.fgagio.tw 高清電影,藍光電影,最新電影,電影天堂,影視帝國,人人影視
點我免費領影視幣
回復 支持 反對

使用道具 舉報

16#
發表于 2019-6-17 10:43:40 | 只看該作者
生死豪情生死豪情
古哥影視論壇www.fgagio.tw 高清電影,藍光電影,最新電影,電影天堂,影視帝國,人人影視
點我免費領影視幣
回復 支持 反對

使用道具 舉報

17#
發表于 2019-6-17 10:49:22 | 只看該作者
反應戰爭和人性的好片子。樓主辛苦
古哥影視論壇www.fgagio.tw 高清電影,藍光電影,最新電影,電影天堂,影視帝國,人人影視
點我免費領影視幣
回復 支持 反對

使用道具 舉報

18#
發表于 2019-6-17 10:58:46 | 只看該作者
好好好好好好好好好好好
古哥影視論壇www.fgagio.tw 高清電影,藍光電影,最新電影,電影天堂,影視帝國,人人影視
點我免費領影視幣
回復 支持 反對

使用道具 舉報

19#
發表于 2019-6-17 11:00:40 | 只看該作者
好好好好好好好好好好好好好好好好好好好好好好
古哥影視論壇www.fgagio.tw 高清電影,藍光電影,最新電影,電影天堂,影視帝國,人人影視
點我免費領影視幣
回復 支持 反對

使用道具 舉報

20#
發表于 2019-6-17 12:17:27 | 只看該作者
感謝樓主無私分享
古哥影視論壇www.fgagio.tw 高清電影,藍光電影,最新電影,電影天堂,影視帝國,人人影視
點我免費領影視幣
回復 支持 反對

使用道具 舉報

懶得打字嘛,點擊右側快捷回復->
您需要登錄后才可以回帖 登錄 | 注冊(分享大片)

本版積分規則

影視帝國免責聲明
本站提供網上學習交流和自由討論使用,所有資源均來自互聯網公開渠道,發布和個人言論并不代表本站立場,本站不負任何責任.
如發現有侵權行為,請與我們聯系.我們將立刻從網站上刪除,并向所有持版權者致最深歉意.
影視帝國論壇已經安全運行

QQ|小黑屋|手機版|Archiver|古哥論壇

GMT+8, 2019-7-22 07:33 , Processed in 0.207249 second(s), 22 queries , Gzip On.

Powered by Discuz! X3.2

© 2001-2013 Comsenz Inc.

快速回復 返回頂部 返回列表
腾讯三分彩官网