古哥論壇

 找回密碼
 注冊(分享大片)
查看: 553|回復: 59
打印 上一主題 下一主題

[1080P] [卓別林/卓別林與他的情人]Chaplin.1992.1080p.BluRay.x264-CiNEFiLE 10.93GB

[復制鏈接]
跳轉到指定樓層
1#
發表于 2019-6-16 22:18:18 | 只看該作者 回帖獎勵 |倒序瀏覽 |閱讀模式
4K天堂

◎譯  名 卓別林 / 卓別林與他的情人 / 卓別林傳
◎片  名 Chaplin
◎年  代 1992
◎產  地 英國 / 美國 / 法國 / 意大利
◎類  別 劇情 / 傳記
◎語  言 英語
◎上映日期 1992-12-18
◎IMDb評分 7.6/10 from 49685 users
◎IMDb鏈接 http://www.imdb.com/title/tt0103939
◎豆瓣評分 8.5/10 from 7716 users
◎藍光高清   http://www.4ktt.com
◎片  長 143分鐘
◎導  演 理查德·阿滕伯勒 Richard Attenborough
◎編  劇 威廉·博伊德 William Boyd / 布萊恩·福布斯 Bryan Forbes / 威廉姆·高德曼 William Goldman / 查理·卓別林 Charles Chaplin
◎主  演 小羅伯特·唐尼 Robert Downey Jr.
      杰拉丁·卓別林 Geraldine Chaplin
      保羅·瑞斯 Paul Rhys
      約翰·肖 John Thaw
      莫伊拉·凱利 Moira Kelly
      安東尼·霍普金斯 Anthony Hopkins
      丹·艾克羅伊德 Dan Aykroyd
      瑪麗莎·托梅 Marisa Tomei
      佩內洛普·安·米勒 Penelope Ann Miller
      凱文·克萊恩 Kevin Kline
      瑪麗亞·皮提羅 Maria Pitillo
      米拉·喬沃維奇 Milla Jovovich
      凱文·杜恩 Kevin Dunn
      黛布拉·摩爾 Deborah Moore
      戴安·琳恩 Diane Lane
      大衛·杜楚尼 David Duchovny

◎簡  介
  傳記作家喬治赴瑞士采訪卓別林(Robert Downey Jr 飾),后者將自己的故事娓娓道來……1894年的英國,小小年紀的卓別林已經開始為臨時演員母親救場,但失祜的困苦生活導致卓別林兄弟分離,母親也因發瘋入院。1903年,卓別林經哥哥介紹進入一家英國劇團開始自己的 演藝生涯,不久他打出名號,獲得美國制片廠的邀請,在美國,卓別林接觸到夢幻般的電影藝術,并用自己的靈氣在電影這種媒介的幫助下名利雙收。卓別林無法忘記自己的出身,掌握制片權后堅持在自己的影片中加入批判精神,也因此被扣上紅色份子的帽子,惹上諸多麻煩。這位卓越的電影人經歷了政治打壓、情人們的離去、成功與失落后垂垂老矣,他在影院看著自己當年的電影,潸然淚下。
本片獲1993年英國電影學院獎最佳男演員,倫敦影評人協會年度演員獎,芝加哥影評人協會獎最有前途女演員獎。


◎獲獎情況
  第65屆奧斯卡金像獎(1993)
  最佳男主角(提名) 小羅伯特·唐尼
  最佳藝術指導(提名) 克里斯·巴特勒 / 斯圖爾特·克萊格
  最佳原創配樂(提名) 約翰·巴里

  第46屆英國電影學院獎(1993)
  電影獎 最佳男主角 小羅伯特·唐尼
  電影獎 最佳化妝/發型(提名) Wally Schneiderman / Jill Rockow / John Caglione Jr.
  電影獎 最佳服裝設計(提名) John Mollo / 艾倫·米羅伊尼克
  電影獎 最佳藝術指導(提名) 斯圖爾特·克萊格



Video
ID : 1
Format : AVC
Format/Info : Advanced Video Codec
Format profile : [email protected]
Format settings, CABAC : Yes
Format settings, ReFrames : 4 frames
Codec ID : V_MPEG4/ISO/AVC
Duration : 2 h 24 min
Bit rate : 9 311 kb/s
Width : 1 920 pixels
Height : 1 040 pixels
Display aspect ratio : 1.85:1
Frame rate mode : Constant
Frame rate : 23.976 (24000/1001) FPS
Color space : YUV
Chroma subsampling : 4:2:0
Bit depth : 8 bits
Scan type : Progressive
Bits/(Pixel*Frame) : 0.194
Stream size : 9.19 GiB (84%)
Writing library : x264 core 113 r1884 7313bb5
Encoding settings : cabac=1 / ref=4 / deblock=1:0:0 / analyse=0x3:0x113 / me=umh / subme=7 / psy=1 / psy_rd=1.00:0.00 / mixed_ref=1 / me_range=16 / chroma_me=1 / trellis=1 / 8x8dct=1 / cqm=0 / deadzone=21,11 / fast_pskip=0 / chroma_qp_offset=-2 / threads=6 / sliced_threads=0 / nr=0 / decimate=1 / interlaced=0 / constrained_intra=0 / bframes=3 / b_pyramid=2 / b_adapt=1 / b_bias=0 / direct=1 / weightb=1 / open_gop=0 / weightp=2 / keyint=250 / keyint_min=23 / scenecut=40 / intra_refresh=0 / rc_lookahead=40 / rc=2pass / mbtree=1 / bitrate=9311 / ratetol=1.0 / qcomp=0.60 / qpmin=0 / qpmax=69 / qpstep=4 / cplxblur=20.0 / qblur=0.5 / ip_ratio=1.40 / aq=1:1.00
Language : English
Default : Yes
Forced : No

Audio
ID : 2
Format : DTS
Format/Info : Digital Theater Systems
Mode : 16
Format settings, Endianness : Big
Codec ID : A_DTS
Duration : 2 h 24 min
Bit rate mode : Constant
Bit rate : 1 509 kb/s
Channel(s) : 2 channels
Channel positions : Front: L R
Sampling rate : 48.0 kHz
Frame rate : 93.750 FPS (512 spf)
Bit depth : 24 bits
Compression mode : Lossy
Stream size : 1.52 GiB (14%)
Language : English
Default : Yes
Forced : No

Text
ID : 3
Format : UTF-8
Codec ID : S_TEXT/UTF8
Codec ID/Info : UTF-8 Plain Text
Language : English
Default : No
Forced : No





游客,如果您要查看本帖隱藏內容請回復,如果您想無廣告、免回復、下載附件免影視幣請開通VIP:VIP傳送門

提示:如迅雷下載提示"任務出錯"、"因版權無法下載",請更換【迅雷5】,提取碼: ai7u
古哥影視論壇www.fgagio.tw 高清電影,藍光電影,最新電影,電影天堂,影視帝國,人人影視
點我免費領影視幣
2#
發表于 2019-6-16 23:28:05 | 只看該作者
謝謝樓主分享,多年前的片子了
古哥影視論壇www.fgagio.tw 高清電影,藍光電影,最新電影,電影天堂,影視帝國,人人影視
點我免費領影視幣
回復 支持 反對

使用道具 舉報

3#
發表于 2019-6-16 23:28:39 | 只看該作者
感謝樓主分享
古哥影視論壇www.fgagio.tw 高清電影,藍光電影,最新電影,電影天堂,影視帝國,人人影視
點我免費領影視幣
回復 支持 反對

使用道具 舉報

4#
發表于 2019-6-16 23:30:42 | 只看該作者
20多年前已經是最佳男豬腳
古哥影視論壇www.fgagio.tw 高清電影,藍光電影,最新電影,電影天堂,影視帝國,人人影視
點我免費領影視幣
回復 支持 反對

使用道具 舉報

5#
發表于 2019-6-16 23:47:18 | 只看該作者
本片獲1993年英國電影學院獎最佳男演員,倫敦影評人協會年度演員獎,芝加哥影評人協會獎最有前途女演員獎。
古哥影視論壇www.fgagio.tw 高清電影,藍光電影,最新電影,電影天堂,影視帝國,人人影視
點我免費領影視幣
回復 支持 反對

使用道具 舉報

6#
發表于 2019-6-16 23:48:24 | 只看該作者
本片獲1993年英國電影學院獎最佳男演員,倫敦影評人協會年度演員獎,芝加哥影評人協會獎最有前途女演員獎。
古哥影視論壇www.fgagio.tw 高清電影,藍光電影,最新電影,電影天堂,影視帝國,人人影視
點我免費領影視幣
回復 支持 反對

使用道具 舉報

7#
發表于 2019-6-16 23:48:32 | 只看該作者
謝謝樓主分享!鋼鐵俠那時候很年輕
古哥影視論壇www.fgagio.tw 高清電影,藍光電影,最新電影,電影天堂,影視帝國,人人影視
點我免費領影視幣
回復 支持 反對

使用道具 舉報

8#
發表于 2019-6-17 00:29:00 | 只看該作者
感謝樓主發片
古哥影視論壇www.fgagio.tw 高清電影,藍光電影,最新電影,電影天堂,影視帝國,人人影視
點我免費領影視幣
回復 支持 反對

使用道具 舉報

9#
發表于 2019-6-17 06:33:34 | 只看該作者
真是一部好電影 樓主辛苦了
古哥影視論壇www.fgagio.tw 高清電影,藍光電影,最新電影,電影天堂,影視帝國,人人影視
點我免費領影視幣
回復 支持 反對

使用道具 舉報

10#
發表于 2019-6-17 07:07:48 | 只看該作者
這都要隱藏啊……
古哥影視論壇www.fgagio.tw 高清電影,藍光電影,最新電影,電影天堂,影視帝國,人人影視
點我免費領影視幣
回復 支持 反對

使用道具 舉報

11#
發表于 2019-6-17 07:11:37 | 只看該作者
謝謝樓主分享辛苦了
古哥影視論壇www.fgagio.tw 高清電影,藍光電影,最新電影,電影天堂,影視帝國,人人影視
點我免費領影視幣
回復 支持 反對

使用道具 舉報

12#
發表于 2019-6-17 07:58:12 | 只看該作者
感謝樓主無私分享
古哥影視論壇www.fgagio.tw 高清電影,藍光電影,最新電影,電影天堂,影視帝國,人人影視
點我免費領影視幣
回復 支持 反對

使用道具 舉報

13#
發表于 2019-6-17 08:17:41 | 只看該作者
謝謝樓主分享
古哥影視論壇www.fgagio.tw 高清電影,藍光電影,最新電影,電影天堂,影視帝國,人人影視
點我免費領影視幣
回復 支持 反對

使用道具 舉報

14#
發表于 2019-6-17 08:21:09 | 只看該作者
卓別林與他的情人卓別林與他的情人卓別林與他的情人卓別林與他的情人卓別林與他的情人卓別林與他的情人卓別林與他的情人卓別林與他的情人卓別林與他的情人卓別林與他的情人卓別林與他的情人
古哥影視論壇www.fgagio.tw 高清電影,藍光電影,最新電影,電影天堂,影視帝國,人人影視
點我免費領影視幣
回復 支持 反對

使用道具 舉報

15#
發表于 2019-6-17 09:02:31 | 只看該作者
謝謝分享下載了
古哥影視論壇www.fgagio.tw 高清電影,藍光電影,最新電影,電影天堂,影視帝國,人人影視
點我免費領影視幣
回復 支持 反對

使用道具 舉報

16#
發表于 2019-6-17 09:07:41 | 只看該作者
謝謝樓主的分享和付出,謝謝你們了
古哥影視論壇www.fgagio.tw 高清電影,藍光電影,最新電影,電影天堂,影視帝國,人人影視
點我免費領影視幣
回復 支持 反對

使用道具 舉報

17#
發表于 2019-6-17 10:42:31 | 只看該作者
鋼鐵俠與卓別林
古哥影視論壇www.fgagio.tw 高清電影,藍光電影,最新電影,電影天堂,影視帝國,人人影視
點我免費領影視幣
回復 支持 反對

使用道具 舉報

18#
發表于 2019-6-17 10:50:55 | 只看該作者
經典的人物傳記,唐尼那時真年輕,樓主辛苦
古哥影視論壇www.fgagio.tw 高清電影,藍光電影,最新電影,電影天堂,影視帝國,人人影視
點我免費領影視幣
回復 支持 反對

使用道具 舉報

19#
發表于 2019-6-17 11:59:45 | 只看該作者
感謝咯你再發下     
古哥影視論壇www.fgagio.tw 高清電影,藍光電影,最新電影,電影天堂,影視帝國,人人影視
點我免費領影視幣
回復 支持 反對

使用道具 舉報

20#
發表于 2019-6-17 15:03:10 | 只看該作者
謝謝樓主分享
古哥影視論壇www.fgagio.tw 高清電影,藍光電影,最新電影,電影天堂,影視帝國,人人影視
點我免費領影視幣
回復 支持 反對

使用道具 舉報

您需要登錄后才可以回帖 登錄 | 注冊(分享大片)

本版積分規則

影視帝國免責聲明
本站提供網上學習交流和自由討論使用,所有資源均來自互聯網公開渠道,發布和個人言論并不代表本站立場,本站不負任何責任.
如發現有侵權行為,請與我們聯系.我們將立刻從網站上刪除,并向所有持版權者致最深歉意.
影視帝國論壇已經安全運行

QQ|小黑屋|手機版|Archiver|古哥論壇 ( 蘇ICP備12074540號 )

GMT+8, 2019-7-6 22:26 , Processed in 0.220968 second(s), 22 queries , Gzip On.

Powered by Discuz! X3.2

© 2001-2013 Comsenz Inc.

快速回復 返回頂部 返回列表
腾讯三分彩官网