古哥論壇

 找回密碼
 注冊(分享大片)
查看: 18344|回復: 1558
打印 上一主題 下一主題

[劇情] [小丑]Joker.2019.1080p.KORSUB.HDRip.x264.AAC2.0-STUTTERSHIT 外掛中英字幕/3.85GB

  [復制鏈接]
跳轉到指定樓層
1#
發表于 2019-11-11 08:58:46 | 只看該作者 回帖獎勵 |倒序瀏覽 |閱讀模式
4K天堂


◎譯  名 小丑 / Joker Origin Movie / Romeo / 小丑起源電影:羅密歐
◎片  名 Joker
◎年  代 2019
◎產  地 美國
◎類  別 劇情 / 驚悚 / 犯罪
◎語  言 英語
◎上映日期 2019-08-31(威尼斯電影節) / 2019-10-04(美國)
◎IMDb評分  9.6/10 from 11147 users
◎IMDb鏈接  http://www.imdb.com/title/tt7286456
◎豆瓣評分 9.3/10 from 3694 users
◎藍光高清電影 http://www.4ktt.com/
◎片  長 122分鐘
◎導  演 托德・菲利普斯 Todd Phillips
◎編  劇 托德・菲利普斯 Todd Phillips / 斯科特・西爾弗 Scott Silver
◎主  演 杰昆・菲尼克斯 Joaquin Phoenix
       羅伯特・德尼羅 Robert De Niro
       馬克・馬龍 Marc Maron
       莎姬・貝茲 Zazie Beetz
       謝・惠根姆 Shea Whigham
       弗蘭西絲・康羅伊 Frances Conroy
       布萊恩・考倫 Bryan Callen
       布萊恩・泰里・亨利 Brian Tyree Henry
       布萊特・卡倫 Brett Cullen
       道格拉斯・霍奇斯 Douglas Hodges
       格倫・弗萊施勒 Glenn Fleshler
       比爾・坎普 Bill Camp
       喬什・帕斯 Josh Pais
       但丁・佩雷拉-奧爾森 Dante Pereira-Olson
       瑪麗・凱特・馬拉特 Mary Kate Malat
       邁克爾・本茨 Michael Benz
       莎瓏・華盛頓 Sharon Washington
       桑德拉・詹姆斯 Sondra James
       托尼・赫德 Tony Head
       曼德拉・貝拉米 Mandela Bellamy
       喬・奧克曼 Joe Ochman
       卡爾・倫德施泰特 Carl Lundstedt
       米克・奧羅克 Mick O'Rourke
       大衛・吉布森 David Gibson
       伊萬・羅薩多 Evan Rosado
       安妮・比薩比亞 Annie Pisapia
       布萊斯・科里根 Blaise Corrigan
       喬恩・道格拉斯・雷尼 Jon Douglas Rainey
       艾恩斯利・丹恩 Aynsleigh Dann
       杰森・約翰・奇卡萊塞 Jason John Cicalese
       Jolie Chan
       Isabella Ferreira
       Gary Gulman

◎簡  介  
  電影《小丑》以同名DC漫畫角色為基礎,由華納兄弟影業公司發行,計劃于2019年10月4日上映。本片的故事將獨立于DCEU之外,故事背景設置在20世紀80年代,講述了一位生活陷入困境的脫口秀喜劇演員漸漸走向精神的崩潰,在哥譚市開始了瘋狂的犯罪生涯,最終成為了蝙蝠俠的宿敵“小丑”的故事。
  本片由《宿醉》的導演托德菲利普斯執導,他與編劇斯科特西爾弗一起撰寫了編劇。杰昆菲尼克斯本片中飾演主人公“小丑”,其他的主演包括羅伯特德尼羅、莎姬貝茲、馬克馬龍等。


◎獲獎情況  
  第76屆威尼斯電影節(2019)
  主競賽單元 金獅獎 托德・菲利普斯

Video
ID                                       : 1
Format                                   : AVC
Format/Info                              : Advanced Video Codec
Format profile                           : [email protected]
Format settings                          : CABAC / 4 Ref Frames
Format settings, CABAC                   : Yes
Format settings, Reference frames        : 4 frames
Codec ID                                 : avc1
Codec ID/Info                            : Advanced Video Coding
Duration                                 : 1 h 55 min
Bit rate                                 : 4 500 kb/s
Width                                    : 1 920 pixels
Height                                   : 1 040 pixels
Display aspect ratio                     : 1.85:1
Frame rate mode                          : Constant
Frame rate                               : 30.000 FPS
Color space                              : YUV
Chroma subsampling                       : 4:2:0
Bit depth                                : 8 bits
Scan type                                : Progressive
Bits/(Pixel*Frame)                       : 0.075
Stream size                              : 3.64 GiB (94%)
Title                                    : Joker.2019.1080p.KORSUB.HDRip.x264.AAC2.0-STUTTERSHIT
Writing library                          : x264 core 148 r2795M aaa9aa8
Encoding settings                        : cabac=1 / ref=4 / deblock=1:0:0 / analyse=0x3:0x113 / me=umh / subme=9 / psy=1 / psy_rd=1.00:0.00 / mixed_ref=1 / me_range=16 / chroma_me=1 / trellis=2 / 8x8dct=1 / cqm=0 / deadzone=21,11 / fast_pskip=1 / chroma_qp_offset=-2 / threads=72 / lookahead_threads=6 / sliced_threads=0 / nr=0 / decimate=1 / interlaced=0 / bluray_compat=0 / constrained_intra=0 / bframes=3 / b_pyramid=2 / b_adapt=2 / b_bias=0 / direct=3 / weightb=1 / open_gop=0 / weightp=2 / keyint=250 / keyint_min=25 / scenecut=40 / intra_refresh=0 / rc_lookahead=50 / rc=abr / mbtree=1 / bitrate=4500 / ratetol=1.0 / qcomp=0.60 / qpmin=0 / qpmax=69 / qpstep=4 / ip_ratio=1.40 / aq=1:1.00
Codec configuration box                  : avcC

Audio
ID                                       : 2
Format                                   : AAC LC
Format/Info                              : Advanced Audio Codec Low Complexity
Codec ID                                 : mp4a-40-2
Duration                                 : 1 h 55 min
Bit rate mode                            : Constant
Bit rate                                 : 256 kb/s
Channel(s)                               : 2 channels
Channel layout                           : L R
Sampling rate                            : 48.0 kHz
Frame rate                               : 46.875 FPS (1024 SPF)
Compression mode                         : Lossy
Stream size                              : 212 MiB (5%)
Title                                    : Joker.2019.1080p.KORSUB.HDRip.x264.AAC2.0-STUTTERSHIT
Language                                 : English
Default                                  : Yes
Alternate group                          : 1





游客,如果您要查看本帖隱藏內容請回復,如果您想無廣告、免回復、下載附件免影視幣請開通VIP:VIP傳送門



中英文字幕包下載(人人影視YYeTs)
游客,如果您要查看本帖隱藏內容請回復,如果您想無廣告、免回復、下載附件免影視幣請開通VIP:VIP傳送門


提示:如迅雷下載提示"任務出錯"、"因版權無法下載",請更換【迅雷5】,提取碼: ai7u
古哥影視論壇www.fgagio.tw 高清電影,藍光電影,最新電影,電影天堂,影視帝國,人人影視
提示:如迅雷下載提示"任務出錯"、"因版權無法下載",請更換【迅雷5】,提取碼: ai7u
推薦
發表于 2019-11-12 12:54:42 | 只看該作者
感謝樓主分享
古哥影視論壇www.fgagio.tw 高清電影,藍光電影,最新電影,電影天堂,影視帝國,人人影視
回復 支持 1 反對 1

使用道具 舉報

推薦
發表于 2019-11-11 09:01:03 | 只看該作者
樓主發貼辛苦了,謝謝樓主分享!我覺得古哥影視的電影是最值得收藏的!
古哥影視論壇www.fgagio.tw 高清電影,藍光電影,最新電影,電影天堂,影視帝國,人人影視
回復 支持 1 反對 0

使用道具 舉報

推薦
發表于 2019-11-11 09:05:31 | 只看該作者
很好,為人民服務
古哥影視論壇www.fgagio.tw 高清電影,藍光電影,最新電影,電影天堂,影視帝國,人人影視
回復 支持 1 反對 0

使用道具 舉報

推薦
發表于 2019-11-12 12:57:26 | 只看該作者
謝謝樓主分享
古哥影視論壇www.fgagio.tw 高清電影,藍光電影,最新電影,電影天堂,影視帝國,人人影視
回復 支持 1 反對 0

使用道具 舉報

推薦
發表于 2019-11-12 12:44:34 | 只看該作者

樓主太厲害了!樓主,I*老*虎*U!古哥影視絕對是電影愛好的天堂!
古哥影視論壇www.fgagio.tw 高清電影,藍光電影,最新電影,電影天堂,影視帝國,人人影視
回復 支持 1 反對 0

使用道具 舉報

推薦
發表于 2019-11-11 09:06:58 | 只看該作者
期待很久了,感謝樓主分享
古哥影視論壇www.fgagio.tw 高清電影,藍光電影,最新電影,電影天堂,影視帝國,人人影視
回復 支持 1 反對 0

使用道具 舉報

推薦
發表于 2019-11-11 09:07:54 | 只看該作者
樓主發貼辛苦了,謝謝樓主分享!我覺得古哥影視的電影是最值得收藏的!
古哥影視論壇www.fgagio.tw 高清電影,藍光電影,最新電影,電影天堂,影視帝國,人人影視
回復 支持 1 反對 0

使用道具 舉報

9#
發表于 2019-11-11 09:08:15 | 只看該作者
韓版也要嘗嘗鮮,謝謝分享
古哥影視論壇www.fgagio.tw 高清電影,藍光電影,最新電影,電影天堂,影視帝國,人人影視
回復 支持 反對

使用道具 舉報

11#
發表于 2019-11-11 09:10:46 | 只看該作者
如此高分電影
古哥影視論壇www.fgagio.tw 高清電影,藍光電影,最新電影,電影天堂,影視帝國,人人影視
回復 支持 反對

使用道具 舉報

12#
發表于 2019-11-11 09:13:01 | 只看該作者
樓主發貼辛苦了,謝謝樓主分享!我覺得古哥影視的電影是最值得收藏的!
古哥影視論壇www.fgagio.tw 高清電影,藍光電影,最新電影,電影天堂,影視帝國,人人影視
回復 支持 反對

使用道具 舉報

13#
發表于 2019-11-11 09:16:29 | 只看該作者
支持一下看看
古哥影視論壇www.fgagio.tw 高清電影,藍光電影,最新電影,電影天堂,影視帝國,人人影視
回復 支持 反對

使用道具 舉報

14#
發表于 2019-11-11 09:19:26 | 只看該作者
居然這么高的評分!
古哥影視論壇www.fgagio.tw 高清電影,藍光電影,最新電影,電影天堂,影視帝國,人人影視
回復 支持 反對

使用道具 舉報

15#
發表于 2019-11-11 09:28:44 | 只看該作者
必須頂,感謝樓主分享
古哥影視論壇www.fgagio.tw 高清電影,藍光電影,最新電影,電影天堂,影視帝國,人人影視
回復 支持 反對

使用道具 舉報

16#
發表于 2019-11-11 09:31:53 | 只看該作者

期待很久了,感謝樓主
古哥影視論壇www.fgagio.tw 高清電影,藍光電影,最新電影,電影天堂,影視帝國,人人影視
回復 支持 反對

使用道具 舉報

17#
發表于 2019-11-11 09:36:42 | 只看該作者
樓主發貼辛苦了,謝謝樓主分享!我覺得古哥影視的電影是最值得收藏的!
古哥影視論壇www.fgagio.tw 高清電影,藍光電影,最新電影,電影天堂,影視帝國,人人影視
回復 支持 反對

使用道具 舉報

18#
發表于 2019-11-11 09:40:08 | 只看該作者

其實我一直覺得樓主的品味不錯!呵呵!古哥影視真的太棒了,多年的高清電影都在這下載的!
古哥影視論壇www.fgagio.tw 高清電影,藍光電影,最新電影,電影天堂,影視帝國,人人影視
回復 支持 反對

使用道具 舉報

19#
發表于 2019-11-11 09:45:26 | 只看該作者
下來看看咯
古哥影視論壇www.fgagio.tw 高清電影,藍光電影,最新電影,電影天堂,影視帝國,人人影視
回復 支持 反對

使用道具 舉報

20#
發表于 2019-11-11 09:47:09 | 只看該作者
期待已久期待已久期待已久
古哥影視論壇www.fgagio.tw 高清電影,藍光電影,最新電影,電影天堂,影視帝國,人人影視
回復 支持 反對

使用道具 舉報

21#
發表于 2019-11-11 09:49:32 | 只看該作者
終于等到了 太感謝了
古哥影視論壇www.fgagio.tw 高清電影,藍光電影,最新電影,電影天堂,影視帝國,人人影視
回復 支持 反對

使用道具 舉報

22#
發表于 2019-11-11 09:52:52 | 只看該作者
感謝樓主分享,謝謝!
古哥影視論壇www.fgagio.tw 高清電影,藍光電影,最新電影,電影天堂,影視帝國,人人影視
回復 支持 反對

使用道具 舉報

23#
發表于 2019-11-11 09:57:56 | 只看該作者
gfdgdgfdhgfhfd

評分

參與人數 1影視幣 -100 收起 理由
愛看電影不解釋 -100 回復與主題無關,違反版規,請尊重他人勞動.

查看全部評分

古哥影視論壇www.fgagio.tw 高清電影,藍光電影,最新電影,電影天堂,影視帝國,人人影視
回復 支持 反對

使用道具 舉報

懶得打字嘛,點擊右側快捷回復->
您需要登錄后才可以回帖 登錄 | 注冊(分享大片)

本版積分規則

影視帝國免責聲明
本站提供網上學習交流和自由討論使用,所有資源均來自互聯網公開渠道,發布和個人言論并不代表本站立場,本站不負任何責任.
如發現有侵權行為,請與我們聯系.我們將立刻從網站上刪除,并向所有持版權者致最深歉意.
影視帝國論壇已經安全運行

QQ|小黑屋|手機版|Archiver|古哥論壇

GMT+8, 2019-12-9 07:06 , Processed in 0.256249 second(s), 23 queries , Gzip On.

Powered by Discuz! X3.4

© 2001-2017 Comsenz Inc.

快速回復 返回頂部 返回列表
腾讯三分彩官网