古哥論壇

 找回密碼
 注冊(分享大片)
查看: 1502|回復: 101
打印 上一主題 下一主題

[憤怒的小鳥2]2019.2160p.UHD.BluRay.X265.10bit.HDR.DTS-X.7.1-TERMiNAL 12.90GB

[復制鏈接]
跳轉到指定樓層
1#
發表于 2019-11-15 17:07:39 | 只看該作者 回帖獎勵 |倒序瀏覽 |閱讀模式
4K天堂


◎譯  名 憤怒的小鳥2 / Angry Birds 2 / 憤怒的小鳥大電影2 / 憤怒鳥大電影2(港) / 憤怒鳥玩電影2(臺)
◎片  名 The Angry Birds Movie 2
◎年  代 2019
◎產  地 芬蘭 / 美國
◎類  別 喜劇 / 動畫 / 冒險
◎語  言 英語
◎上映日期 2019-08-14(美國) / 2019-08-16(中國大陸)
◎IMDb評分 6.5/10 from 4645 users
◎IMDb鏈接 https://www.imdb.com/title/tt6095472
◎豆瓣評分 7.2/10 from 15287 users
◎4K電影下載 http://www.4ktt.com/
◎片  長 96分鐘
◎導  演 圖魯普·范·奧爾曼 Thurop Van Orman
◎編  劇 彼得·阿克曼 Peter Ackerman
◎主  演 杰森·蘇戴奇斯 Jason Sudeikis
      比爾·哈德爾 Bill Hader
      喬什·加德 Josh Gad
      丹尼·麥克布萊德 Danny McBride
      彼特·丁拉基 Peter Dinklage
      妮琪·米娜 Nicki Minaj
      斯特林·K·布朗 Sterling K. Brown
      萊斯莉·瓊斯 Leslie Jones
      奧卡菲娜 Awkwafina
      蕾切爾·布魯姆 Rachel Bloom
      扎克·伍茲 Zach Woods
      歐赫尼奧·德爾維斯 Eugenio Derbez
      里爾·萊爾·哈瓦瑞 Lil Rel Howery
      德芙·卡梅隆 Dove Cameron
      貝克·班尼特 Beck Bennett
      布魯克琳·普林斯 Brooklynn Prince
      阿爾瑪·瓦薩諾 Alma Varsano
      菲絲·瑪格麗特·基德曼-厄本 Faith Margaret Kidman-Urban
      桑迪·蘿絲·厄本 Sunday Rose Urban
      吉妮西絲·坦尼翁 Genesis Tennon

◎簡  介
  十年“歡喜冤家”豬鳥依舊如往常一樣“互相拆臺”。然而,“不速之客”發射冰球襲擊了小鳥島和豬豬島,令雙方不得不放下芥蒂,小鳥島昔日英雄胖紅聯合小鳥伙伴們與曾經的對手“搗蛋豬”雷納德一行組建了臨時聯盟,他們將前往全新冰封島嶼上阻止神秘反派的滅世計劃。
Video
ID : 1
Format : HEVC
Format/Info : High Efficiency Video Coding
Format profile : Main [email protected]@High
HDR format : SMPTE ST 2086, HDR10 compatible
Codec ID : V_MPEGH/ISO/HEVC
Duration : 1 h 36 min
Bit rate : 13.4 Mb/s
Width : 3 840 pixels
Height : 2 076 pixels
Display aspect ratio : 1.85:1
Frame rate mode : Constant
Frame rate : 23.976 (24000/1001) FPS
Color space : YUV
Chroma subsampling : 4:2:0 (Type 2)
Bit depth : 10 bits
Bits/(Pixel*Frame) : 0.070
Stream size : 9.07 GiB (70%)
Writing library : x265 3.2f46aa2bc1c34:[Windows][GCC 9.2.0][64 bit] 10bit
Encoding settings : cpuid=1176575 / frame-threads=6 / numa-pools=36 / wpp / no-pmode / no-pme / no-psnr / no-ssim / log-level=2 / input-csp=1 / input-res=3840x2076 / interlace=0 / total-frames=139248 / level-idc=51 / high-tier=1 / uhd-bd=0 / ref=4 / no-allow-non-conformance / repeat-headers / annexb / aud / hrd / info / hash=0 / no-temporal-layers / no-open-gop / min-keyint=1 / keyint=24 / gop-lookahead=0 / bframes=4 / b-adapt=2 / b-pyramid / bframe-bias=0 / rc-lookahead=25 / lookahead-slices=4 / scenecut=40 / radl=0 / no-splice / no-intra-refresh / ctu=64 / min-cu-size=8 / rect / no-amp / max-tu-size=32 / tu-inter-depth=1 / tu-intra-depth=1 / limit-tu=0 / rdoq-level=2 / dynamic-rd=0.00 / no-ssim-rd / signhide / no-tskip / nr-intra=0 / nr-inter=0 / no-constrained-intra / no-strong-intra-smoothing / max-merge=3 / limit-refs=3 / limit-modes / me=3 / subme=3 / merange=57 / temporal-mvp / no-frame-dup / no-hme / weightp / no-weightb / no-analyze-src-pics / deblock=-3:-3 / no-sao / no-sao-non-deblock / rd=4 / selective-sao=0 / no-early-skip / rskip / no-fast-intra / no-tskip-fast / no-cu-lossless / no-b-intra / no-splitrd-skip / rdpenalty=0 / psy-rd=2.00 / psy-rdoq=1.00 / no-rd-refine / no-lossless / cbqpoffs=0 / crqpoffs=0 / rc=crf / crf=17.0 / qcomp=0.60 / qpstep=4 / stats-write=0 / stats-read=0 / vbv-maxrate=160000 / vbv-bufsize=160000 / vbv-init=0.9 / crf-max=0.0 / crf-min=0.0 / ipratio=1.40 / pbratio=1.30 / aq-mode=1 / aq-strength=1.00 / cutree / zone-count=0 / no-strict-cbr / qg-size=32 / no-rc-grain / qpmax=69 / qpmin=0 / no-const-vbv / sar=1 / overscan=0 / videoformat=5 / range=0 / colorprim=9 / transfer=16 / colormatrix=9 / chromaloc=1 / chromaloc-top=2 / chromaloc-bottom=2 / display-window=0 / master-display=G(13250,34500)B(7500,3000)R(34000,16000)WP(15635,16450)L(40000000,50) / cll=1001,640 / min-luma=0 / max-luma=1023 / log2-max-poc-lsb=8 / vui-timing-info / vui-hrd-info / slices=1 / no-opt-qp-pps / no-opt-ref-list-length-pps / no-multi-pass-opt-rps / scenecut-bias=0.05 / no-opt-cu-delta-qp / no-aq-motion / hdr / hdr-opt / no-dhdr10-opt / no-idr-recovery-sei / analysis-reuse-level=5 / scale-factor=0 / refine-intra=0 / refine-inter=0 / refine-mv=1 / refine-ctu-distortion=0 / no-limit-sao / ctu-info=0 / no-lowpass-dct / refine-analysis-type=0 / copy-pic=1 / max-ausize-factor=1.0 / no-dynamic-refine / no-single-sei / no-hevc-aq / no-svt / no-field / qp-adaptation-range=1.00
Default : Yes
Forced : No
Color range : Limited
Color primaries : BT.2020
Transfer characteristics : PQ
Matrix coefficients : BT.2020 non-constant
Mastering display color primaries : Display P3
Mastering display luminance : min: 0.0050 cd/m2, max: 4000 cd/m2
Maximum Content Light Level : 1001 cd/m2
Maximum Frame-Average Light Level : 640 cd/m2

Audio
ID : 2
Format : DTS XLL
Format/Info : Digital Theater Systems
Commercial name : DTS-HD Master Audio
Codec ID : A_DTS
Duration : 1 h 36 min
Bit rate mode : Variable
Bit rate : 5 328 kb/s
Channel(s) : 8 channels
Channel layout : C L R LFE Lb Rb Lss Rss
Sampling rate : 48.0 kHz
Frame rate : 93.750 FPS (512 SPF)
Bit depth : 24 bits
Compression mode : Lossless
Stream size : 3.60 GiB (28%)
Language : English
Default : Yes
Forced : No

Text #1
ID : 3
Format : UTF-8
Codec ID : S_TEXT/UTF8
Codec ID/Info : UTF-8 Plain Text
Duration : 4 s 87 ms
Bit rate : 68 b/s
Count of elements : 2
Stream size : 35.0 Bytes (0%)
Title : English Forced
Language : English
Default : No
Forced : Yes

Text #2
ID : 4
Format : PGS
Muxing mode : zlib
Codec ID : S_HDMV/PGS
Codec ID/Info : Picture based subtitle format used on BDs/HD-DVDs
Duration : 1 h 34 min
Bit rate : 48.6 kb/s
Count of elements : 3518
Stream size : 32.9 MiB (0%)
Title : English SDH
Language : English
Default : No
Forced : No

Text #3
ID : 5
Format : PGS
Muxing mode : zlib
Codec ID : S_HDMV/PGS
Codec ID/Info : Picture based subtitle format used on BDs/HD-DVDs
Duration : 1 h 27 min
Bit rate : 40.8 kb/s
Count of elements : 2646
Stream size : 25.5 MiB (0%)
Title : English
Language : English
Default : No
Forced : No

Text #4
ID : 6
Format : PGS
Muxing mode : zlib
Codec ID : S_HDMV/PGS
Codec ID/Info : Picture based subtitle format used on BDs/HD-DVDs
Duration : 1 h 27 min
Bit rate : 40.8 kb/s
Count of elements : 2646
Stream size : 25.5 MiB (0%)
Title : English
Language : English
Default : No
Forced : No

Text #5
ID : 7
Format : PGS
Muxing mode : zlib
Codec ID : S_HDMV/PGS
Codec ID/Info : Picture based subtitle format used on BDs/HD-DVDs
Duration : 1 h 36 min
Bit rate : 30.2 kb/s
Count of elements : 2768
Stream size : 20.8 MiB (0%)
Title : Khmer
Language : Khmer
Default : No
Forced : No

Text #6
ID : 8
Format : PGS
Muxing mode : zlib
Codec ID : S_HDMV/PGS
Codec ID/Info : Picture based subtitle format used on BDs/HD-DVDs
Duration : 1 h 36 min
Bit rate : 28.0 kb/s
Count of elements : 2776
Stream size : 19.2 MiB (0%)
Title : Chinese
Language : Chinese
Default : No
Forced : No

Text #7
ID : 9
Format : PGS
Muxing mode : zlib
Codec ID : S_HDMV/PGS
Codec ID/Info : Picture based subtitle format used on BDs/HD-DVDs
Duration : 1 h 36 min
Bit rate : 30.1 kb/s
Count of elements : 2800
Stream size : 20.7 MiB (0%)
Title : Chinese
Language : Chinese
Default : No
Forced : No

Text #8
ID : 10
Format : PGS
Muxing mode : zlib
Codec ID : S_HDMV/PGS
Codec ID/Info : Picture based subtitle format used on BDs/HD-DVDs
Duration : 1 h 36 min
Bit rate : 28.6 kb/s
Count of elements : 2782
Stream size : 19.6 MiB (0%)
Title : Chinese
Language : Chinese
Default : No
Forced : No

Text #9
ID : 11
Format : PGS
Muxing mode : zlib
Codec ID : S_HDMV/PGS
Codec ID/Info : Picture based subtitle format used on BDs/HD-DVDs
Duration : 1 h 36 min
Bit rate : 29.5 kb/s
Count of elements : 2079
Stream size : 20.3 MiB (0%)
Title : Dutch
Language : Dutch
Default : No
Forced : No

Text #10
ID : 12
Format : PGS
Muxing mode : zlib
Codec ID : S_HDMV/PGS
Codec ID/Info : Picture based subtitle format used on BDs/HD-DVDs
Duration : 1 h 36 min
Bit rate : 31.1 kb/s
Count of elements : 2692
Stream size : 21.4 MiB (0%)
Title : French
Language : French
Default : No
Forced : No

Text #11
ID : 13
Format : PGS
Muxing mode : zlib
Codec ID : S_HDMV/PGS
Codec ID/Info : Picture based subtitle format used on BDs/HD-DVDs
Duration : 1 h 36 min
Bit rate : 35.8 kb/s
Count of elements : 2706
Stream size : 24.6 MiB (0%)
Title : Indonesian
Language : Indonesian
Default : No
Forced : No

Text #12
ID : 14
Format : PGS
Muxing mode : zlib
Codec ID : S_HDMV/PGS
Codec ID/Info : Picture based subtitle format used on BDs/HD-DVDs
Duration : 1 h 35 min
Bit rate : 26.5 kb/s
Count of elements : 2791
Stream size : 18.2 MiB (0%)
Title : Korean
Language : Korean
Default : No
Forced : No

Text #13
ID : 15
Format : PGS
Muxing mode : zlib
Codec ID : S_HDMV/PGS
Codec ID/Info : Picture based subtitle format used on BDs/HD-DVDs
Duration : 1 h 36 min
Bit rate : 42.0 kb/s
Count of elements : 2782
Stream size : 28.9 MiB (0%)
Title : Malay
Language : Malay
Default : No
Forced : No

Text #14
ID : 16
Format : PGS
Muxing mode : zlib
Codec ID : S_HDMV/PGS
Codec ID/Info : Picture based subtitle format used on BDs/HD-DVDs
Duration : 1 h 36 min
Bit rate : 35.3 kb/s
Count of elements : 2744
Stream size : 24.3 MiB (0%)
Title : Portuguese
Language : Portuguese
Default : No
Forced : No

Text #15
ID : 17
Format : PGS
Muxing mode : zlib
Codec ID : S_HDMV/PGS
Codec ID/Info : Picture based subtitle format used on BDs/HD-DVDs
Duration : 1 h 36 min
Bit rate : 33.7 kb/s
Count of elements : 2667
Stream size : 23.1 MiB (0%)
Title : Spanish
Language : Spanish
Default : No
Forced : No

Text #16
ID : 18
Format : PGS
Muxing mode : zlib
Codec ID : S_HDMV/PGS
Codec ID/Info : Picture based subtitle format used on BDs/HD-DVDs
Duration : 1 h 36 min
Bit rate : 35.8 kb/s
Count of elements : 2738
Stream size : 24.6 MiB (0%)
Title : Spanish
Language : Spanish
Default : No
Forced : No

Text #17
ID : 19
Format : PGS
Muxing mode : zlib
Codec ID : S_HDMV/PGS
Codec ID/Info : Picture based subtitle format used on BDs/HD-DVDs
Duration : 1 h 36 min
Bit rate : 43.7 kb/s
Count of elements : 2762
Stream size : 30.0 MiB (0%)
Title : Vietnamese
Language : Vietnamese
Default : No
Forced : No

Text #18
ID : 20
Format : PGS
Muxing mode : zlib
Codec ID : S_HDMV/PGS
Codec ID/Info : Picture based subtitle format used on BDs/HD-DVDs
Duration : 1 h 36 min
Bit rate : 563 b/s
Count of elements : 48
Stream size : 396 KiB (0%)
Title : French
Language : French
Default : No
Forced : No






游客,如果您要查看本帖隱藏內容請回復,如果您想無廣告、免回復、下載附件免影視幣請開通VIP:VIP傳送門

提示:如迅雷下載提示"任務出錯"、"因版權無法下載",請更換【迅雷5】,提取碼: ai7u
古哥影視論壇www.fgagio.tw 高清電影,藍光電影,最新電影,電影天堂,影視帝國,人人影視
提示:如迅雷下載提示"任務出錯"、"因版權無法下載",請更換【迅雷5】,提取碼: ai7u
2#
發表于 2019-11-15 17:22:56 | 只看該作者
多謝樓主分享,樓主威武!!!
古哥影視論壇www.fgagio.tw 高清電影,藍光電影,最新電影,電影天堂,影視帝國,人人影視
回復 支持 反對

使用道具 舉報

3#
發表于 2019-11-15 17:24:00 | 只看該作者

多謝樓主分享,樓主威武!!!
古哥影視論壇www.fgagio.tw 高清電影,藍光電影,最新電影,電影天堂,影視帝國,人人影視
回復 支持 反對

使用道具 舉報

5#
發表于 2019-11-15 18:20:14 | 只看該作者
謝謝露珠分享
古哥影視論壇www.fgagio.tw 高清電影,藍光電影,最新電影,電影天堂,影視帝國,人人影視
回復 支持 反對

使用道具 舉報

6#
發表于 2019-11-15 18:26:37 | 只看該作者
多謝樓主分享,樓主威武!!!
古哥影視論壇www.fgagio.tw 高清電影,藍光電影,最新電影,電影天堂,影視帝國,人人影視
回復 支持 反對

使用道具 舉報

7#
發表于 2019-11-15 18:48:54 | 只看該作者
謝謝人生如影版主制作分享!
古哥影視論壇www.fgagio.tw 高清電影,藍光電影,最新電影,電影天堂,影視帝國,人人影視
回復 支持 反對

使用道具 舉報

8#
發表于 2019-11-15 19:06:28 | 只看該作者
xiexielouzhufenx
古哥影視論壇www.fgagio.tw 高清電影,藍光電影,最新電影,電影天堂,影視帝國,人人影視
回復 支持 反對

使用道具 舉報

9#
發表于 2019-11-15 19:15:26 | 只看該作者
我看不錯噢 謝謝樓主!古哥影視越來越好,高清電影還得上這來下載





......
古哥影視論壇www.fgagio.tw 高清電影,藍光電影,最新電影,電影天堂,影視帝國,人人影視
回復 支持 反對

使用道具 舉報

10#
發表于 2019-11-15 19:16:35 | 只看該作者
謝謝分享更好資源
古哥影視論壇www.fgagio.tw 高清電影,藍光電影,最新電影,電影天堂,影視帝國,人人影視
回復 支持 反對

使用道具 舉報

11#
發表于 2019-11-15 19:20:44 | 只看該作者
感謝樓主分享!
古哥影視論壇www.fgagio.tw 高清電影,藍光電影,最新電影,電影天堂,影視帝國,人人影視
回復 支持 反對

使用道具 舉報

12#
發表于 2019-11-15 19:42:27 | 只看該作者
下載收藏,4k版本,值得收藏
古哥影視論壇www.fgagio.tw 高清電影,藍光電影,最新電影,電影天堂,影視帝國,人人影視
回復 支持 反對

使用道具 舉報

13#
發表于 2019-11-15 19:56:15 | 只看該作者
感謝感謝太棒了  哈哈
古哥影視論壇www.fgagio.tw 高清電影,藍光電影,最新電影,電影天堂,影視帝國,人人影視
回復 支持 反對

使用道具 舉報

14#
發表于 2019-11-15 19:59:13 | 只看該作者
既然你誠信誠意的推薦了,那我就勉為其難的看看吧!愛電影,愛生活古哥影視不走平凡路。





......
古哥影視論壇www.fgagio.tw 高清電影,藍光電影,最新電影,電影天堂,影視帝國,人人影視
回復 支持 反對

使用道具 舉報

15#
發表于 2019-11-15 20:01:58 | 只看該作者
謝謝樓主分享
古哥影視論壇www.fgagio.tw 高清電影,藍光電影,最新電影,電影天堂,影視帝國,人人影視
回復 支持 反對

使用道具 舉報

16#
發表于 2019-11-15 20:21:50 | 只看該作者
誰誰誰誰誰誰水水水水水水水水水水水水水水水水
古哥影視論壇www.fgagio.tw 高清電影,藍光電影,最新電影,電影天堂,影視帝國,人人影視
回復 支持 反對

使用道具 舉報

17#
發表于 2019-11-15 20:34:55 | 只看該作者
多謝樓主分享,樓主威武!!!
古哥影視論壇www.fgagio.tw 高清電影,藍光電影,最新電影,電影天堂,影視帝國,人人影視
回復 支持 反對

使用道具 舉報

18#
發表于 2019-11-15 20:36:19 | 只看該作者
樓主發貼辛苦了,謝謝樓主分享!我覺得古哥影視的電影是最值得收藏的!





......
古哥影視論壇www.fgagio.tw 高清電影,藍光電影,最新電影,電影天堂,影視帝國,人人影視
回復 支持 反對

使用道具 舉報

19#
發表于 2019-11-15 20:46:15 | 只看該作者
謝謝樓主分享
古哥影視論壇www.fgagio.tw 高清電影,藍光電影,最新電影,電影天堂,影視帝國,人人影視
回復 支持 反對

使用道具 舉報

20#
發表于 2019-11-15 21:02:50 | 只看該作者
樓主發貼辛苦了,謝謝樓主分享!我覺得古哥影視的電影是最值得收藏的!
古哥影視論壇www.fgagio.tw 高清電影,藍光電影,最新電影,電影天堂,影視帝國,人人影視
回復 支持 反對

使用道具 舉報

懶得打字嘛,點擊右側快捷回復->
您需要登錄后才可以回帖 登錄 | 注冊(分享大片)

本版積分規則

影視帝國免責聲明
本站提供網上學習交流和自由討論使用,所有資源均來自互聯網公開渠道,發布和個人言論并不代表本站立場,本站不負任何責任.
如發現有侵權行為,請與我們聯系.我們將立刻從網站上刪除,并向所有持版權者致最深歉意.
影視帝國論壇已經安全運行

QQ|小黑屋|手機版|Archiver|古哥論壇

GMT+8, 2019-12-7 11:34 , Processed in 0.205650 second(s), 19 queries , Gzip On.

Powered by Discuz! X3.4

© 2001-2017 Comsenz Inc.

快速回復 返回頂部 返回列表
腾讯三分彩官网